Реклама
Каталог
  iPhone
  Филми
      DVD-R
      XviD
      HDTV
      Сериали
      Формула 1
  Музика
      Песен
      Албум
      Клипове
  Игри
      PC
      Конзоли
  Програми
      Windows
      Linux
      MacOS
      PDA
  Книги
  XXX
  Други
  Всички
Форум
Теми:2,225
Отговори:257,882
Теми/Отговори:1 %
Торент детайли
Файл Малките Неща (2021) / THE LITTLE THINGS /2021 - HD other
СВАЛИ Малките Неща (2021) / THE LITTLE THINGS /2021 - HD other
Реклама
Инфо хeш 00d0db7d4f3567f0bb76b5d674b2f4044bc2aa27
Описание




' ## Заглавие на Английски: THE LITTLE THINGS /2021

## Заглавие на Български: Малките Неща

## Релийз: HD other

## Жанр: Драма; Криминален; Трилър

## Режисьор: Джон Лий Ханкок

## Сценарист: Джон Лий Ханкок

## В ролите: Дензъл Уошингтън, Рами Малек, Джаред Лето и др.

## Държава:: САЩ

## Година: 2021

## Дължина: 02:07:48

## Видео поток: ID : 1
Format : AVC
Format/Info : Advanced Video Codec
Format profile : Main@L3.1
Format settings : CABAC / 4 Ref Frames
Format settings, CABAC : Yes
Format settings, Reference frames : 4 frames
Codec ID : V_MPEG4/ISO/AVC
Duration : 2 h 7 min
Bit rate mode : Variable
Bit rate : 3 315 kb/s
Maximum bit rate : 5 100 kb/s
Width : 1 280 pixels
Height : 544 pixels
Display aspect ratio : 2.35:1
Frame rate mode : Constant
Frame rate : 23.976 (24000/1001) FPS
Color space : YUV
Chroma subsampling : 4:2:0
Bit depth : 8 bits
Scan type : Progressive
Bits/(Pixel*Frame) : 0.199
Stream size : 2.96 GiB (80%)
Default : Yes
Forced : No
Color range : Limited
Color primaries : BT.709
Transfer characteristics : BT.709
Matrix coefficients : BT.709


## Аудио поток: ID : 2
Format : E-AC-3 JOC
Format/Info : Enhanced AC-3 with Joint Object Coding
Commercial name : Dolby Digital Plus with Dolby Atmos
Codec ID : A_EAC3
Duration : 2 h 7 min
Bit rate mode : Constant
Bit rate : 768 kb/s
Channel(s) : 6 channels
Channel layout : L R C LFE Ls Rs
Sampling rate : 48.0 kHz
Frame rate : 31.250 FPS (1536 SPF)
Compression mode : Lossy
Stream size : 702 MiB (18%)
Language : English
Service kind : Complete Main
Default : Yes
Forced : No
Complexity index : 16
Number of dynamic objects : 15
Bed channel count : 1 channel
Bed channel configuration : LFE


## Субтитри: в торента

## Линк към IMDB: http://www.imdb.com/title/tt10016180/

## Резюме: Заместник-шерифът на окръг Керн Джо “Дийк” Дийкън (Дензъл Уошингтън) е изпратен в Лос Анджелис за това, което би трябвало да бъде бърза задача за събиране на доказателства. Вместо това той се забърква в търсенето на убиец, който тероризира града. Водейки лова, сержантът на отдела на Л.А. Джим Бакстър (Рами Малек), впечатлен от полицейските инстинкти на Дийк, неофициално ангажира помощта му. Но докато проследяват убиеца, Бакстър не знае, че разследването изкопава ехото от миналото на Дийк, разкривайки обезпокоителни тайни, които биха могли да застрашат повече от неговия случай.

Категория Movies x264
Оценка:
  • Currently 5.00/5
Rating: 5.0 out of 5.0 (Votes: 7) For your upload!

Размер 3.72 GB
Покажи / скрий файловете
2 files
Добавен 31/01/2021 - 21:00
Последно активен 17/05/2021 - 16:17
Свален 892 Път(и)
Пиъри Сийдъри: 36, Лийчъри: 1 = 37 Пиъри


Без коментар...